#TITLE:Rain of a Thousand Flames;
#SUBTITLE:;
#ARTIST:Rhapsody;
#TITLETRANSLIT:;
#SUBTITLETRANSLIT:;
#ARTISTTRANSLIT:;
#CREDIT:DukAmok;
#BANNER:Rain_Of_A_Thousand_Flames.png;
#BACKGROUND:Rain_Of_A_Thousand_Flames-bg.png;
#LYRICSPATH:;
#CDTITLE:!duktitle.png;
#MUSIC:Rhapsody - Rain Of A Thousand Flames.mp3;
#OFFSET:1.290;
#SAMPLESTART:37.500;
#SAMPLELENGTH:10.000;
#SELECTABLE:YES;
#BPMS:0.000=215.004;
#STOPS:657.000=0.279
;
#BGCHANGES:;
// cache tags:
#FIRSTBEAT:5.000;
#LASTBEAT:784.000;
#SONGFILENAME:Songs/Music V.I.P ^_^/Rain_Of_A_Thousand_Flames/Rain_Of_A_Thousand_Flames.sm;
#HASMUSIC:1;
#HASBANNER:1;
#MUSICLENGTH:221.518;
// end cache tags

//---------------dance-single - Heavy----------------
#NOTES:
     dance-single:
     Heavy:
     Hard:
     11:
     1.000,1.000,0.835,0.117,1.000,1746.000,185.000,26.000,0.000,0.000:

0000
0000
0000
0000
,
0000
1001
1001
0000
,
0000
0101
0101
0000
,
0000
1010
1010
0000
,
0000
2200
0000
0000
,
3000
0020
0000
0000
,
0330
0220
0000
0000
,
0300
0002
0000
0000
,
0033
0000
0000
0000
0001
0100
0001
0100
0010
1000
0010
1000
0010
1000
0100
1000
,
0100
1000
0100
1000
0100
0010
0100
0010
0001
1000
0001
1000
0010
0100
0001
0100
,
0010
1000
0010
1000
0010
1000
0001
0100
0001
0100
0001
0100
0010
1000
0010
1000
,
0100
1000
0100
1000
0001
0010
0001
0010
0001
1000
0010
0100
0001
1000
0100
0010
,
0001
0010
0001
0010
0001
0010
0100
0010
0100
0010
0100
1000
0010
0100
0001
1000
,
0010
0100
0001
0010
0001
1000
0001
1000
0010
0100
0010
0100
0010
0100
0001
0100
,
0001
0100
0001
0100
0001
0010
0001
0010
0100
1000
0010
0100
0010
1000
0100
0010
,
0001
0100
0001
0010
0100
1000
0100
1000
0010
0100
0010
1000
0100
0010
0001
0100
,
0010
1000
0100
0010
1001
0000
0000
0000
1000
0000
0101
0000
0000
0000
0010
0000
,
1100
0000
0000
0000
0000
0000
0000
0000
0000
0000
0000
0000
0001
0010
0100
1000
,
0001
0100
0010
1000
0001
0100
0001
0010
0001
1000
0010
0100
0010
1000
0100
1000
,
0001
0010
0001
1000
0100
1000
0010
1000
0100
0010
0001
0010
0001
0100
0001
0010
,
0100
1000
0100
0010
0001
0100
1010
0100
,
0011
0000
0000
0000
0001
0000
0000
0000
0010
0000
0001
0000
0100
0010
1000
0001
,
0010
0100
1000
0001
1000
0100
0010
0100
1000
0001
0100
0010
0100
0001
1000
0001
,
0100
0010
1000
0100
0010
0100
1000
0001
0100
0001
0010
0100
0010
0001
1000
0010
,
1001
1000
0011
0001
,
2100
0000
3001
0000
,
1000
0010
0100
0001
1000
0010
1000
0100
1000
0001
0100
0010
0100
0001
0010
0001
,
1000
0100
1000
0001
0010
0001
0100
0001
0010
0100
1000
0100
1000
0010
1000
0100
,
0010
0001
0010
0100
1000
0010
0101
0010
,
1100
0000
0000
0000
1000
0000
0000
0000
0100
0000
1000
0000
0010
0100
0001
1000
,
0100
0010
0001
1000
0001
0010
0100
0010
0001
1000
0010
0100
0010
1000
0001
1000
,
0010
0100
0001
0010
0100
0010
0001
1000
0010
1000
0100
0010
0100
1000
0001
0100
,
1010
0010
0101
0010
,
0120
0000
1030
0000
,
0001
0000
1100
0000
0001
0100
1010
0000
,
0010
0000
1100
0000
0101
1000
1010
0010
,
0101
0001
0010
0100
1001
0010
0001
0100
,
0010
1000
0010
0000
0000
0000
0100
0001
0100
0000
0000
0000
0010
0000
1000
0000
,
0001
0000
0011
0000
1000
0001
0110
0000
,
0100
0000
0011
0000
1001
0010
0100
0010
,
1001
0010
1000
0110
0001
1000
0100
0010
,
0001
1000
0100
0000
0000
0000
1000
0010
0100
0000
0000
0000
0100
0000
0001
0000
,
1001
0010
0100
0001
0010
0100
1000
0100
,
0011
0001
1000
0010
1000
0100
0010
0001
,
1000
0100
1000
0100
0010
0001
0100
0001
0010
0100
0010
0100
1000
0001
0100
0010
,
1000
0000
0010
0100
,
0101
0000
0001
0001
,
1010
0000
1100
0000
,
0011
0000
0101
0000
,
1010
0000
0001
0010
,
1100
0000
0000
0000
,
1001
0000
0001
0010
,
1001
0000
0000
0000
0000
0000
0000
0000
0000
0000
0000
0000
0001
1000
0001
0100
,
0010
1000
0100
0010
0001
0100
0001
1000
0100
1000
0010
0100
0010
1000
0100
0010
,
0100
0010
0001
1000
0100
0010
0100
1000
0001
0100
0001
0010
0100
0010
0001
0100
,
0010
0100
0010
1000
0010
0100
0001
0010
0100
0010
0001
1000
0100
1000
0001
0100
,
0001
0010
0100
1000
0100
1000
0001
0100
0001
0010
0001
1000
0100
1000
0010
1000
,
0010
0100
0001
0010
0001
0100
0010
1000
0100
1000
0001
1000
0010
0100
0001
1000
,
0010
0100
0001
1000
0100
1000
0010
0100
0001
0010
0100
1000
0100
1000
0001
0100
,
0001
0100
0010
1000
0100
1000
0001
0100
0001
0010
0100
0010
0001
1000
0100
0010
,
0001
0100
0010
1000
0100
1000
0001
0100
0001
0010
0100
1000
0001
0100
0010
1000
,
0100
0010
0001
1000
0100
0010
0001
0010
0100
1000
0001
0100
,
0001
1000
0100
0010
0100
1000
0001
0100
0010
1000
0001
0010
,
0100
1000
0001
0100
0010
1000
0001
0100
0001
0010
0100
1000
,
0100
0010
0001
1000
0100
0010
0002
0000
0000
0013
0000
0000
,
1000
0100
1000
0001
0010
0100
1000
0100
0010
0001
1000
0010
,
1000
0001
0010
0100
0010
0001
1000
0010
0100
0001
1000
0100
,
0010
0001
1000
0010
0100
0001
1000
0010
1000
0100
0010
0001
,
0010
0000
0000
0000
0100
0000
0000
0000
1000
0000
0000
0000
0001
0000
0000
0000
0010
0000
0000
0000
0100
0000
0000
0000
2000
0000
0000
0000
0000
0000
0000
0000
0000
0000
0000
0000
3010
0000
0000
0100
0000
0000
0001
0000
0000
1000
0000
0000
,
0010
0100
0001
0010
0100
0010
0001
1000
0100
1000
0001
0010
0100
0010
0001
1000
,
0010
0100
0010
1000
0100
1000
0001
0100
0001
0010
0001
1000
0010
0100
0010
1000
,
0101
0010
1000
0100
0011
0100
1100
0010
,
0101
0000
0010
0000
1000
0000
0100
0000
0010
0000
0001
0000
1000
0010
0100
0001
,
1000
0010
0100
0001
1000
0100
1000
0010
0100
0001
1000
0100
0010
0001
1000
0100
,
1000
0001
0100
0001
0010
0100
1000
0001
0010
0001
0100
0010
1000
0001
0100
0001
,
0110
0001
1100
0010
,
1002
0000
0103
0000
,
0100
0010
1000
0100
0010
0100
1000
0001
0010
0001
1000
0100
0010
0100
1000
0001
,
0100
0010
0100
0001
0010
0001
1000
0010
1000
0100
1000
0001
0100
0010
0100
0001
,
1010
0100
0001
0010
1100
0010
0011
0100
,
1010
0000
0100
0000
0001
0000
0010
0000
0100
0000
1000
0000
0001
0100
0010
1000
,
0001
0100
0010
1000
0001
0010
0001
0100
0010
1000
0001
0010
0100
1000
0001
0010
,
0001
1000
0010
1000
0100
0010
0001
1000
0100
1000
0010
0100
0001
1000
0010
1000
,
0110
1000
0011
0100
,
2001
0000
3010
0000
,
1000
0000
0011
0000
1000
0010
0101
0000
,
0100
0000
0011
0000
1010
0001
0101
0100
,
1010
1000
0100
0010
1001
0100
1000
0010
,
0100
0001
0100
0000
0000
0000
0010
1000
0010
0000
0000
0000
0100
0000
0001
0000
,
1000
0000
1100
0000
0001
1000
0110
0000
,
0010
0000
1100
0000
1001
0100
0010
0100
,
1001
0100
0001
0110
1000
0001
0010
0100
,
1000
0001
0010
0000
0000
0000
0001
0100
0010
0000
0000
0000
0010
0000
1000
0000
,
1001
0100
0010
1000
0100
0010
0001
0010
,
1100
1000
0001
0100
0001
0010
0100
1000
,
0001
0010
0001
0010
0100
1000
0010
1000
0100
0010
0100
0010
0001
1000
0010
0100
,
0001
0000
0100
0010
,
1010
0000
1000
0100
,
0101
0000
0011
0000
,
1100
0000
1010
0000
,
0101
0000
1000
0010
,
0011
0000
0000
0000
,
1001
0000
0010
1000
,
0101
0000
0000
0000
0000
0000
0000
0000
0000
0000
0000
0000
0001
0010
0100
0010
,
0001
1000
0010
0100
0010
1000
0100
1000
0001
0100
0001
0010
0100
1000
0001
0100
,
0001
1000
0100
1000
0010
0100
0010
1000
0001
0100
0001
0010
0100
0010
0001
1000
,
0010
0100
0010
1000
0001
0010
0001
1000
0010
1000
0010
0100
0001
0100
0010
1000
,
0001
0010
0100
0010
0001
1000
0100
0010
0100
1000
0001
0100
0001
1000
0100
0010
,
0001
0010
0100
0010
0001
0100
0010
1000
0010
0100
0001
1000
0001
0100
0010
1000
,
0100
0010
0100
1000
0100
0010
0100
1000
0001
0100
0001
0010
0001
0100
0010
1000
,
0001
0010
0100
0010
0001
0010
0100
0010
0001
0100
0010
0100
0001
0100
0010
1000
,
0100
1000
0001
0100
0001
1000
0100
0010
0100
1000
0001
0100
0010
1000
0100
0010
,
0001
0000
1100
0000
1000
0010
0101
0000
,
0010
0000
1001
0000
1000
0010
0011
0000
,
0001
0000
1100
0000
1000
0100
1100
0000
,
0010
0010
0011
1000
1100
0001
0011
0000
,
1100
0100
0010
0011
0000
0000
1010
0000
,
0011
0000
0000
0101
0000
0000
1010
0000
,
0110
0010
1000
0100
0110
0000
0011
0000
,
1001
0100
0110
0010
1100
0100
1100
0010
,
0110
0001
1010
0010
0101
0001
0100
0010
,
1001
0010
0100
0001
0011
0100
1100
0001
,
0101
0010
1000
0100
1001
0010
0100
0010
,
1100
0010
0001
0100
1010
0100
0001
0010
,
0110
0100
1000
0001
0101
0010
1000
0100
,
1100
0100
0010
0001
0101
0010
1010
1000
,
1100
0010
0001
0100
1010
0100
0001
0010
,
1100
0010
0001
0100
0101
0100
0110
0010
,
1010
0000
0000
0100
0000
0000
0001
0000
0000
0010
0000
0000
0100
0000
1000
0000
0100
0000
0010
0000
0001
0000
0010
0000
,
0200
0000
0000
0000
0000
0000
0000
0300
,
1000
0002
0000
0000
0000
0000
0000
0000
0000
0000
0000
0000
0000
0000
0000
0000
0000
0000
0000
0000
0000
0000
0000
0000
0000
0000
0000
0000
0000
0000
0000
0000
0000
0000
0000
0000
0000
0000
0000
0000
0000
0000
0000
0000
0000
0000
0000
0000
0000
0000
0000
0000
0000
0000
0000
0000
0000
0000
0000
0000
0000
0000
0000
0000
,
0103
0001
0100
0010
1000
0010
0100
0001
0100
0010
1000
0100
,
0010
0001
0010
0100
1000
0100
0010
0001
0010
0001
0010
0100
,
1000
0000
1000
0001
0100
0001
1000
0001
0010
0001
0100
0001
,
1000
0010
0100
0010
1000
0010
0100
0001
0010
0100
1000
0100
,
0020
0000
0000
0032
0000
0000
2003
0000
,
3010
0100
0001
1000
0010
0100
0001
0010
0100
1000
0001
0010
,
0100
1000
0001
0010
0100
1000
0100
0010
0001
0010
0100
1000
,
0010
0100
0110
0001
0101
0001
0011
0010
,
0110
0100
1100
1000
1001
0001
0101
0100
,
0110
0000
0010
1010
0000
0000
1000
0110
,
0001
0000
0001
1010
0000
0000
1000
0100
,
0110
0010
0001
1000
0000
0010
0100
0000
,
0011
0100
1000
0010
0000
0010
0100
0000
,
0101
0010
1000
1000
0000
0110
0000
0010
,
0011
0001
1000
0010
0000
1000
0001
0000
,
0011
0100
1000
0010
0000
1001
0000
0001
,
0101
0010
1000
0100
0000
0010
0001
0000
,
1100
0010
0100
1000
0000
0101
0000
0010
,
1010
1000
0100
0011
0000
0001
1001
0000
,
1010
0010
0100
0101
0000
0011
0000
0010
,
0110
0100
1000
1001
0000
0001
0101
0000
,
0001
1000
0010
0100
0001
1000
0010
1000
0001
1000
0010
0100
0001
1000
0100
0010
,
0001
0010
0100
1000
0001
0010
0100
1000
0001
0100
0010
1000
0100
0010
0001
0010
,
0100
0000
0000
0000
1000
0000
0000
0000
0100
0000
0000
0000
0010
0000
0000
0000
0000
0000
0001
0000
0000
0000
0000
0000
1000
0000
0000
0010
0000
0000
0100
0000
0000
0000
0000
0000
0101
0000
0000
0000
0000
0000
0000
0000
0000
0000
0000
0000
,
1000
0000
0000
0000
0001
0000
0000
0000
0100
0000
0000
0000
0010
0000
0000
0000
0000
0000
1000
0000
0000
0001
0000
0000
1000
0000
0000
0000
0000
0000
0010
0000
0000
0000
0000
0000
1100
0000
0000
0000
0000
0000
0000
0000
0000
0000
0000
0000
,
0001
0000
1000
0000
0100
0000
0010
0000
0000
0001
0000
0000
0100
0000
0000
0001
0000
0000
0101
0000
0000
0000
0000
0000
,
1000
0000
0000
0000
0100
0000
0000
0000
1000
0000
0000
0000
0010
0000
0000
0000
0000
0000
0100
0000
0000
0001
0000
0000
1000
0000
0000
0000
0000
0000
0100
0000
0000
0000
0000
0000
0011
0000
0000
0100
0000
0000
1000
0000
0000
0100
0000
0000
,
0010
0001
1000
0100
0010
0100
1000
0001
0010
0100
0010
0001
1000
0100
1000
0010
,
0100
0001
0100
0010
1000
0010
0100
0010
1000
0010
0100
0001
0100
0001
1000
0010
,
0100
0001
0010
0100
0010
0001
1000
0010
0100
0010
1000
0100
0010
0001
1000
0100
,
1000
0010
0100
0001
0010
0100
0010
0001
1000
0010
0100
0010
1000
0001
0100
0001
,
0010
0000
0010
0110
0000
0100
1100
1000
,
1010
0010
0110
0000
0100
0101
0000
0001
,
2002
0000
0000
3003
,
1010
0000
0001
1000
,
1100
0000
0010
0001
,
1001
0000
0011
0000
,
1010
0000
0101
0000
,
0110
0000
0010
1000
,
1001
0000
0000
0000
,
0011
0000
0010
0100
,
1100
0000
0000
0000
0000
0000
0000
0000
1000
0000
0001
0000
0100
0001
0010
0001
,
1000
0100
0010
0001
0010
0001
1000
0100
1000
0010
0100
0001
1000
0100
1000
0010
,
0100
0001
0010
0100
0010
0001
1000
0010
0100
0001
0010
0100
0010
0001
1000
0010
,
1000
0001
0100
0001
0010
0100
0010
0001
1000
0100
1000
0001
0010
0100
0010
0001
,
1000
0001
1000
0010
0100
0001
1000
0001
0100
0010
1000
0100
0010
0001
0100
0001
,
1000
0010
0100
0001
1000
0001
0010
0100
1000
0100
1000
0001
0100
0001
0010
0001
,
0100
0010
1000
0100
1000
0010
0100
0001
0010
0001
1000
0010
0100
0001
0100
0001
,
1000
0100
1000
0010
1000
0001
0100
0001
1000
0010
1000
0100
0010
0100
0010
0001
,
1000
0010
0100
0001
0010
0100
0010
0001
1000
0100
0010
0001
1000
0100
1000
0001
,
1000
0010
0100
0001
0010
0100
1000
0100
1000
0001
0010
0001
,
1000
0010
0100
0001
0100
0010
1000
0100
1000
0100
0010
0100
,
0010
0001
1000
0010
0100
0001
1000
0100
1000
0001
0100
0001
,
1000
0100
0010
0001
0010
0100
2000
0000
0000
3010
0000
0000
,
0001
0100
0010
1000
0100
0010
0001
0010
0001
1000
0100
1000
,
0001
0100
0010
1000
0010
0100
0001
0010
0001
0010
0100
0010
,
0100
1000
0001
0100
0010
1000
0001
0010
0001
1000
0010
1000
,
0001
0000
0000
0000
0010
0000
0000
0000
0100
0000
0000
0000
1000
0000
0000
0000
0100
0000
0000
0000
0010
0000
0000
0000
0001
0000
0000
0100
0000
0000
0010
0000
0000
1000
0000
0000
0010
0000
0000
0100
0000
0000
0001
0000
0000
1000
0000
0000
,
0101
0101
0000
0000
,
0011
0011
0000
0000
,
1010
1010
0000
0000
,
2002
0000
0000
3000
,
0200
0000
0000
0303
,
2020
0000
0000
0030
,
0002
0000
0000
0000
0000
0000
0000
0000
0000
0000
0000
0000
0000
0000
0000
3000
0000
0000
0013
0000
1000
0000
0001
0000
,
0110
0000
0000
0000
;

//---------------dance-single - Challenge----------------
#NOTES:
     dance-single:
     Challenge:
     Challenge:
     12:
     1.000,1.000,1.000,0.117,1.000,1841.000,232.000,26.000,0.000,0.000:


0000
0000
0000
0000
,
0000
1001
1001
0000
,
0000
1010
1010
0000
,
0000
0101
0101
0000
,
0000
0022
0000
0000
,
0003
0200
0000
0000
,
0330
0220
0000
0000
,
0030
2000
0000
0000
,
3300
0000
0000
0000
1000
0010
1000
0010
0100
0001
0100
0001
0100
0001
0010
0001
,
0010
0001
0010
0001
0010
0100
0010
0100
1000
0001
1000
0001
0100
0010
1000
0010
,
0100
0001
0100
0001
0100
0001
1000
0010
1000
0010
1000
0010
0100
0001
0100
0001
,
0010
0001
0010
0001
1000
0100
1000
0100
1000
0001
0100
0010
1000
0001
0010
0100
,
1000
0100
1000
0100
1000
0100
0010
0100
0010
0100
0010
0001
0100
0010
1000
0001
,
0100
0010
1000
0100
1000
0001
1000
0001
0100
0010
0100
0010
0100
0010
1000
0010
,
1000
0010
1000
0010
1000
0100
1000
0100
0010
0001
0100
0010
0100
0001
0010
0100
,
1000
0010
1000
0100
0010
0001
0010
0001
0100
0010
0100
0001
0010
0100
1000
0010
,
0100
0001
0010
0100
1001
0000
0000
0000
0011
0000
1010
0000
0000
0000
0110
0000
,
0011
0000
0000
0000
0000
0000
0000
0000
0000
0000
0000
0000
0001
0010
0100
1000
,
0110
0001
0100
0001
1000
0010
1000
0100
1000
0001
0100
0010
0100
0001
0010
0001
,
1000
0100
1000
0001
0010
0001
0100
0001
0010
0100
1000
0100
1000
0010
1000
0100
,
0011
0001
0110
0100
1010
0010
0101
0010
,
1100
0000
0010
0000
1000
0000
0001
0000
0110
0000
0010
0000
1000
0100
0010
0100
,
0011
1000
0001
1000
0001
0010
0100
0010
0001
1000
0010
0100
0010
1000
0001
1000
,
0010
0100
0001
0010
0100
0010
0001
1000
0010
1000
0100
0010
0100
1000
0001
0100
,
1001
0001
1100
1000
,
0012
0000
1003
0000
,
1001
0100
0010
1000
0001
0100
0001
0010
0001
1000
0010
0100
0010
1000
0100
1000
,
0001
0010
0001
1000
0100
1000
0010
1000
0100
0010
0001
0010
0001
0100
0001
0010
,
1100
1000
0110
0010
1001
0100
1010
0100
,
0011
0000
0000
0000
0010
0000
0000
0000
0001
0000
0100
0000
0010
1000
0001
0010
,
1100
0001
1000
0001
1000
0100
0010
0100
1000
0001
0100
0010
0100
0001
1000
0001
,
0100
0010
1000
0100
0010
0100
1000
0001
0100
0001
0010
0100
0010
0001
1000
0010
,
0101
0100
1010
0100
,
0210
0000
0301
0000
,
1000
0000
0011
0000
1000
0010
0101
0000
,
0100
0000
0011
0000
1010
0001
0101
0100
,
1010
1000
0100
0010
1001
0100
1000
0010
,
0100
0001
0100
0000
0000
0000
0010
1000
0010
0000
0000
0000
0100
0000
0001
0000
,
1000
0000
1100
0000
0001
1000
0110
0000
,
0010
0000
1100
0000
1001
0100
0010
0100
,
1001
0100
0001
0110
1000
0001
0010
0100
,
1000
0001
0010
0000
0000
0000
0001
0100
0010
0000
0000
0000
0010
0000
1000
0000
,
1001
0010
1000
0001
0100
0001
0010
0100
1000
0010
0100
0001
1000
0001
0010
0100
,
1000
0010
0100
0001
1000
0010
0100
0001
1000
0100
0010
0100
1000
0001
0010
0001
,
1100
0010
0001
1000
0001
0100
0010
0100
1001
0010
1000
0100
0010
0001
0010
0100
,
1000
0000
0100
0010
,
1010
0000
1000
1000
,
0101
0000
0011
0000
,
1100
0000
1010
0000
,
0101
0000
1000
0100
,
0011
0000
0000
0000
,
1001
0000
1000
0100
,
1001
0000
0000
0000
0000
0000
0000
0000
0000
0000
0000
0000
0001
0010
0100
1000
,
0110
0001
0010
0100
1000
0010
1000
0001
0010
0001
0100
0010
0100
0001
0010
0100
,
0010
0100
1000
0001
0010
0100
0010
0001
1000
0010
1000
0100
0010
0100
1000
0010
,
0100
0010
0100
0001
0100
0010
1000
0100
0010
0100
1000
0001
0010
0001
1000
0010
,
1000
0100
0010
0001
0010
0001
1000
0010
1000
0100
1000
0001
0010
0001
0100
0001
,
0100
0010
1000
0100
1000
0010
0100
0001
0010
0001
1000
0001
0100
0010
1000
0001
,
0100
0010
1000
0001
0010
0001
0100
0010
1000
0100
0010
0001
0010
0001
1000
0010
,
1000
0010
0100
0001
0010
0001
1000
0010
1000
0100
0010
0100
1000
0001
0010
0100
,
1000
0010
0100
0001
0010
0001
1000
0010
1000
0100
0010
0001
1000
0010
0100
0001
,
1100
0100
0010
0001
0010
0100
1000
0100
0010
0001
1000
0010
,
1100
0001
0010
0100
0010
0001
1000
0010
0100
0001
1000
0100
,
1010
0001
1000
0010
0100
0001
1000
0010
1000
0100
0010
0001
,
1010
0100
1000
0001
0010
0100
2001
0000
0000
3100
0000
0000
,
1001
0010
0001
1000
0100
0010
0001
0010
0100
1000
0001
0100
,
0011
1000
0100
0010
0100
1000
0001
0100
0010
1000
0001
0010
,
0101
1000
0001
0100
0010
1000
0001
0100
0001
0010
0100
1000
,
0101
0000
0000
0000
0010
0000
0000
0000
0001
0000
0000
0000
1000
0000
0000
0000
0100
0000
0000
0000
0010
0000
0000
0000
2001
0000
0000
0000
0000
0000
0000
0000
0000
0000
0000
0000
3100
0000
0000
0010
0000
0000
0001
0000
0000
0100
0000
0000
,
1001
0100
1000
0001
0010
0100
1000
0001
0010
0001
1000
0100
0010
0100
1000
0001
,
0100
0010
0100
0001
0010
0001
1000
0010
1000
0100
1000
0001
0100
0010
0100
0001
,
1010
0100
0001
0010
1100
0010
0011
0100
,
1010
0000
0001
0000
1000
0000
0010
0000
0100
0000
0001
0000
0010
0100
1000
0100
,
0011
1000
0100
0010
0001
0010
0001
0100
0010
1000
0001
0010
0100
1000
0001
0010
,
0001
1000
0010
1000
0100
0010
0001
1000
0100
1000
0010
0100
0001
1000
0010
1000
,
0110
1000
0011
0100
,
2001
0000
3010
0000
,
1010
0100
0001
0010
0100
0010
0001
1000
0100
1000
0001
0010
0100
0010
0001
1000
,
0010
0100
0010
1000
0100
1000
0001
0100
0001
0010
0001
1000
0010
0100
0010
1000
,
0101
0010
1000
0100
0011
0100
1100
0010
,
0101
0000
0100
0000
0001
0000
0100
0000
0010
0000
1000
0000
0100
0010
0001
1000
,
0101
0010
0100
0001
1000
0100
1000
0010
0100
0001
1000
0100
0010
0001
1000
0100
,
1000
0001
0100
0001
0010
0100
1000
0001
0010
0001
0100
0010
1000
0001
0100
0001
,
0110
0001
1100
0010
,
1002
0000
0103
0000
,
0001
0000
1100
0000
0001
0100
1010
0000
,
0010
0000
1100
0000
0101
1000
1010
0010
,
0101
0001
0010
0100
1001
0010
0001
0100
,
0010
1000
0010
0000
0000
0000
0100
0001
0100
0000
0000
0000
0010
0000
1000
0000
,
0001
0000
0011
0000
1000
0001
0110
0000
,
0100
0000
0011
0000
1001
0010
0100
0010
,
1001
0010
1000
0110
0001
1000
0100
0010
,
0001
1000
0100
0000
0000
0000
1000
0010
0100
0000
0000
0000
0100
0001
1000
0010
,
1001
0100
0001
0100
0010
1000
0100
0010
0001
0010
0100
1000
0100
0010
0100
1000
,
0011
0100
1000
0010
0100
0001
1000
0010
0100
0010
0100
0001
0010
0100
1000
0100
,
0011
1000
0010
0100
0010
1000
0100
0010
1001
0010
0100
0001
1000
0010
0100
0001
,
1010
0000
0010
0100
,
0101
0000
0001
0010
,
1010
0000
1100
0000
,
0011
0000
0101
0000
,
1010
0000
0001
0100
,
1100
0000
0000
0000
,
1001
0000
0100
0001
,
1010
0000
0000
0000
0000
0000
0000
0000
0000
0000
0000
0000
0001
0100
0010
0100
,
1010
0001
0100
0010
0100
0001
0010
0001
1000
0010
1000
0100
0010
0001
1000
0010
,
1000
0001
0010
0001
0100
0010
0100
0001
1000
0010
1000
0100
0010
0100
1000
0001
,
0100
0010
0100
0001
1000
0100
1000
0001
0100
0001
0100
0010
1000
0010
0100
0001
,
1000
0100
0010
0100
1000
0001
0010
0100
0010
0001
1000
0010
1000
0001
0010
0100
,
1000
0100
0010
0100
1000
0010
0100
0001
0100
0010
1000
0001
1000
0010
0100
0001
,
0010
0100
0010
0001
0010
0100
0010
0001
1000
0010
1000
0100
1000
0010
0100
0001
,
1000
0100
0010
0100
1000
0100
0010
0100
1000
0010
0100
0010
1000
0010
0100
0001
,
0010
0001
1000
0010
1000
0001
0010
0100
0010
0001
1000
0010
0100
0001
0010
0100
,
1001
0000
0011
0000
0001
0100
1010
0000
,
0100
0000
1001
0000
0001
0100
1100
0000
,
1000
0000
0011
0000
0001
0010
0011
0000
,
0100
0100
1100
0001
0011
1000
1100
0000
,
0011
0010
0100
1100
0000
0000
0101
0000
,
1100
0000
0000
1010
0000
0000
0101
0000
,
0110
0100
0001
0010
0110
0000
1100
0000
,
1001
0010
0110
0100
0011
0010
0011
0100
,
0110
1000
0101
0100
1010
1000
0010
0100
,
1001
0010
0100
0001
0100
0010
1000
0100
0010
0001
0010
0100
1000
0001
0100
0010
,
1001
0100
0001
0010
0100
1000
0010
1000
0100
0010
0001
1000
0010
0100
0001
1000
,
0110
0001
1000
0010
1000
0100
0010
0001
0010
0100
0010
0001
1000
0010
0100
0001
,
0110
1000
0001
0100
0010
1000
0100
0010
0100
1000
0010
0100
0001
1000
0010
0100
,
1010
0001
0100
0010
1000
0100
0010
0001
0010
0100
1000
0001
0010
0001
1000
0010
,
0101
1000
0010
0100
0001
0010
0100
0010
0001
1000
0100
1000
0010
0100
0001
1000
,
0110
0001
1000
0100
1000
0001
0010
0001
1000
0010
0100
0001
1000
0100
1000
0010
,
0101
0000
0000
1000
0000
0000
0001
0000
0000
1000
0000
0000
0100
0000
0000
0010
0000
0000
0001
0000
0000
0000
0000
0000
0110
0000
0000
0000
1000
0000
0000
0000
0100
0000
0000
0000
0011
0000
0000
0000
1000
0000
0000
0000
0010
0000
0000
0000
,
0200
0000
0000
0300
,
0001
2000
0000
0000
0000
0000
0000
0000
0000
0000
0000
0000
0000
0000
0000
0000
0000
0000
0000
0000
0000
0000
0000
0000
0000
0000
0000
0000
0000
0000
0000
0000
0000
0000
0000
0000
0000
0000
0000
0000
0000
0000
0000
0000
0000
0000
0000
0000
0000
0000
0000
0000
0000
0000
0000
0000
0000
0000
0000
0000
0000
0000
0000
0000
,
3100
0010
0001
1100
0010
0001
0100
0010
1000
0101
0010
1000
,
0100
0010
0001
1100
0010
0001
1010
0100
0001
1100
0010
0001
,
1000
0000
0001
1000
0010
1000
0001
1000
0100
1000
0010
1000
,
0001
0100
0010
0100
0001
0100
0010
1000
0100
0010
0001
0010
,
0200
0000
0000
2300
0000
0000
3002
0000
,
0103
0010
1000
0001
0100
0010
1000
0100
0010
0001
1000
0100
,
1010
0100
0001
0010
0100
1000
0100
0010
0001
0100
0010
0100
,
0001
0010
0110
1000
1010
1000
1100
0100
,
0110
0010
0011
0001
1001
1000
1010
0010
,
0110
0000
0100
0101
0000
0000
0001
0110
,
1000
0000
1000
0101
0000
0000
0001
0010
,
0110
0100
1000
0001
0000
0100
0010
0000
,
1100
0010
0001
0100
0000
0100
0010
0000
,
1010
0100
0001
0001
0000
0110
0000
0100
,
1100
1000
0001
0100
0000
0001
1000
0000
,
1100
0010
0001
0100
0000
1001
0000
1000
,
1010
0100
0001
0010
0000
0100
1000
0000
,
0011
0100
0010
0001
0000
1010
0000
0100
,
0101
0001
0010
1100
0000
1000
1001
0000
,
0101
0100
0010
1010
0000
1100
0000
0100
,
0110
0010
0001
1001
0000
1000
1010
0000
,
1010
0001
0100
0010
1000
0001
0100
0001
1010
0100
0001
0010
0100
1000
0001
0010
,
1100
0001
0010
0001
1000
0100
0010
0001
1010
0100
0001
1000
0100
0010
0001
0010
,
1100
0000
0000
0000
0010
0000
0000
0000
0001
0000
0000
0000
0010
0000
0000
0000
0000
0000
0001
0000
0000
0000
0000
0000
0100
0000
0000
0010
0000
0000
1000
0000
0000
0000
0000
0000
0110
0000
0000
0000
0000
0000
0000
0000
0000
0000
0000
0000
,
0101
0000
0000
0000
1000
0000
0000
0000
0010
0000
0000
0000
0100
0000
0000
0000
0000
0000
0001
0000
0000
1000
0000
0000
0001
0000
0000
0000
0000
0000
0100
0000
0000
0000
0000
0000
0011
0000
0000
0000
0000
0000
0000
0000
0000
0000
0000
0000
,
1001
0000
0010
0000
1000
0000
0100
0000
0000
0010
0000
0000
0001
0000
0000
0010
0000
0000
1100
0000
0000
0000
0000
0000
,
0011
0000
0000
0000
0100
0000
0000
0000
1000
0000
0000
0000
0010
0000
0000
0000
0000
0000
0100
0000
0000
0001
0000
0000
1000
0000
0000
0000
0000
0000
0010
0000
0000
0000
0000
0000
0100
0000
0000
0010
0000
0000
1000
0000
0000
0100
0000
0000
,
1001
0010
0001
0010
0100
0010
0001
1000
0100
0010
0100
1000
0001
0010
0001
0100
,
1010
0001
0100
0010
1000
0010
0100
0010
1000
0010
0100
0001
0100
0001
1000
0010
,
0101
1000
0100
0010
0100
1000
0001
0100
1010
0001
0010
0100
1000
0001
0100
0010
,
1001
0100
0010
1000
0100
0010
0100
1000
0110
0001
0010
0100
1000
0010
0100
0001
,
1100
0000
0100
0110
0000
0010
0011
0001
,
0101
0100
0110
0000
0010
1010
0000
1000
,
2002
0000
0000
3003
,
0101
0000
1000
0001
,
0011
0000
0100
1000
,
1001
0000
1100
0000
,
0101
0000
1010
0000
,
0110
0000
0100
0001
,
1001
0000
0000
0000
,
1100
0000
0100
0010
,
0011
0000
0000
0000
0000
0000
0000
0000
1000
0000
0001
0000
0010
0100
1000
0010
,
0101
0010
0100
1000
0100
1000
0001
0010
0001
0100
0010
1000
0001
0010
0001
0100
,
0010
1000
0100
0010
0100
1000
0001
0100
0010
1000
0100
0010
0100
1000
0001
0100
,
0001
1000
0010
1000
0100
0010
0100
1000
0001
0010
0001
1000
0100
0010
0100
1000
,
0001
1000
0001
0100
0010
1000
0001
1000
0010
0100
0001
0010
0100
1000
0010
1000
,
0001
0100
0010
1000
0001
1000
0100
0010
0001
0010
0001
1000
0010
1000
0100
1000
,
0010
0100
0001
0010
0001
0100
0010
1000
0100
1000
0001
0100
0010
1000
0010
1000
,
0001
0010
0001
0100
0001
1000
0010
1000
0001
0100
0001
0010
0100
0010
0100
1000
,
0001
0100
0010
1000
0100
0010
0100
1000
0001
0010
0100
1000
0001
0010
0001
1000
,
0001
0100
0010
1000
0100
0010
0001
0010
0001
1000
0100
1000
,
0001
0100
0010
1000
0010
0100
0001
0010
0001
0010
0100
0010
,
0100
1000
0001
0100
0010
1000
0001
0010
0001
1000
0010
1000
,
0001
0010
0100
1000
0100
0010
0002
0000
0000
0103
0000
0000
,
1000
0010
0100
0001
0010
0100
1000
0100
1000
0001
0010
0001
,
1000
0010
0100
0001
0100
0010
1000
0100
1000
0100
0010
0100
,
0010
0001
1000
0010
0100
0001
1000
0100
1000
0001
0100
0001
,
1000
0000
0000
0000
0100
0000
0000
0000
0010
0000
0000
0000
0001
0000
0000
0000
0010
0000
0000
0000
0100
0000
0000
0000
1000
0000
0000
0010
0000
0000
0100
0000
0000
0001
0000
0000
0100
0000
0000
0010
0000
0000
1000
0000
0000
0001
0000
0000
,
1010
1010
0000
0000
,
1100
1100
0000
0000
,
0101
0101
0000
0000
,
2002
0000
0000
0003
,
0020
0000
0000
3030
,
0202
0000
0000
0300
,
2000
0000
0000
0000
0000
0000
0000
0000
0000
0000
0000
0000
0000
0000
0000
0003
0000
0000
3100
0000
0001
0000
1000
0000
,
0110
0000
0000
0000
;

//---------------dance-single - Edit----------------
#NOTES:
     dance-single:
     Edit:
     Edit:
     13:
     1.000,1.000,1.000,0.117,1.000,1847.000,556.000,26.000,0.000,5.000:

0000
0000
0000
0000
,
0000
1001
1001
0000
,
0000
0101
0101
0000
,
0000
1010
1010
0000
,
0000
2200
0000
0000
,
3000
0020
0000
0000
,
0330
0220
0000
0000
,
0300
0002
0000
0000
,
1033
0100
1000
0100
1001
0100
0001
0100
0011
1000
0010
1000
0010
1000
0110
1000
,
0100
1000
0100
1000
0101
0010
0100
0010
0101
1000
0001
1000
0011
0100
0001
0100
,
0011
1000
0010
1000
0010
1000
0011
0100
0001
0100
0001
0100
0011
1000
0010
1000
,
0110
1000
0100
1000
0101
0010
0001
0010
0101
1000
0010
0100
0011
1000
0100
0010
,
1001
0010
0001
0010
0001
0010
1100
0010
0100
0010
0100
1000
0011
0100
0001
1000
,
0011
0100
0001
0010
0001
1000
0001
1000
0011
0100
0010
0100
0010
0100
1001
0100
,
0001
0100
0001
0100
1001
0010
0001
0010
0101
1000
0010
0100
0011
1000
0100
0010
,
1001
0100
0001
0010
0101
1000
0100
1000
0011
0100
0010
1000
0101
0010
0001
0100
,
0011
1000
0100
0010
1001
0000
0000
0000
1100
0000
0101
0000
0000
0000
0110
0000
,
1100
0000
0000
0000
0000
0000
0000
0000
0000
0000
0000
0000
1001
0100
0010
0001
,
0110
1000
0010
1000
0011
0100
0001
0010
0101
1000
0010
0100
0011
1000
0100
1000
,
0101
0010
0001
1000
0101
1000
0010
1000
0101
0010
0001
0010
1001
0100
0001
0010
,
1100
1000
0110
0010
0101
0100
1010
0100
,
0011
0000
0100
0000
0001
0000
1000
0000
0110
0000
0100
0000
0001
0010
0100
0010
,
1100
0001
1000
0001
1010
0100
0010
0100
1010
0001
0100
0010
1100
0001
1000
0001
,
1100
0010
1000
0100
0011
0100
1000
0001
1100
0001
0010
0100
1010
0001
1000
0010
,
1001
1000
0011
0001
,
2100
0000
3001
0000
,
1001
0010
0100
0001
1100
0010
1000
0100
1010
0001
0100
0010
1100
0001
0010
0001
,
1010
0100
1000
0001
0110
0001
0100
0001
1010
0100
1000
0100
1001
0010
1000
0100
,
0011
0001
0110
0100
1001
0010
0101
0010
,
1100
0000
0000
0000
0100
0000
0000
0000
1000
0000
0010
0000
0100
0001
1000
0100
,
0011
1000
0001
1000
0101
0010
0100
0010
0101
1000
0010
0100
0011
1000
0001
1000
,
0011
0100
0001
0010
1100
0010
0001
1000
0011
1000
0100
0010
0101
1000
0001
0100
,
1010
0010
0101
0010
,
0120
0000
1030
0000
,
0001
0000
1100
0000
0001
0100
1010
0000
,
0010
0000
1100
0000
0101
1000
1010
0010
,
0101
0001
0010
0100
1001
0010
0001
0100
,
0011
1000
0010
0000
0000
0000
1100
0001
0100
0000
0000
0000
0010
0000
1000
0000
,
0001
0000
0011
0000
1000
0001
0110
0000
,
0100
0000
0011
0000
1001
0010
0100
0010
,
1001
0010
1000
0110
0001
1000
0100
0010
,
0011
1000
0100
0000
0000
0000
1001
0010
0100
0000
0000
0000
0100
0000
0001
0000
,
1001
0100
0001
1000
0011
1000
0100
0010
1001
0100
0010
1000
0011
1000
0100
0010
,
1001
0100
0010
1000
0011
0100
0010
1000
0101
0010
0100
0010
0101
1000
0100
1000
,
0011
0100
1000
0001
1100
0010
0100
0010
1001
0100
0001
0010
0101
1000
0100
0010
,
1001
0000
0010
0100
,
0101
0000
0001
0001
,
1010
0000
1100
0000
,
0011
0000
0101
0000
,
1010
0000
0001
0010
,
1100
0000
0000
0000
,
1001
0000
0001
0010
,
1001
0000
0000
0000
0000
0000
0000
0000
0000
0000
0000
0000
1000
0100
0010
0001
,
0110
1000
0100
0010
1001
0100
0001
1000
0110
1000
0010
0100
0011
1000
0100
0010
,
1100
0010
0001
1000
0101
0010
0100
1000
0011
0100
0001
0010
1100
0010
0001
0100
,
0011
0100
0010
1000
0011
0100
0001
0010
1100
0010
0001
1000
0110
1000
0001
0100
,
1001
0010
0100
1000
0101
1000
0001
0100
1001
0010
0001
1000
0101
1000
0010
1000
,
0011
0100
0001
0010
1001
0100
0010
1000
0110
1000
0001
1000
0011
0100
0001
1000
,
0011
0100
0001
1000
0110
1000
0010
0100
1001
0010
0100
1000
0101
1000
0001
0100
,
1001
0100
0010
1000
0101
1000
0001
0100
1001
0010
0100
0010
0101
1000
0100
0010
,
1001
0100
0010
1000
0110
1000
0001
0100
1001
0010
0100
1000
0011
0100
0010
1000
,
0011
0010
0100
1001
0100
0010
1001
0010
0100
1010
0001
0100
,
0011
1000
0100
0011
0100
1000
0011
0100
0010
1100
0001
0010
,
0101
1000
0001
1100
0010
1000
0011
0100
0001
1010
0100
1000
,
0101
0010
0001
1010
0100
0010
1002
0000
0000
0013
0000
0000
,
1001
0100
1000
0101
0010
0100
1001
0100
0010
0101
1000
0010
,
1100
0001
0010
1100
0010
0001
1100
0010
0100
0011
1000
0100
,
1010
0001
1000
0011
0100
0001
1100
0010
1000
0101
0010
0001
,
1010
0000
0000
0000
0100
0000
0000
0000
1000
0000
0000
0000
0101
0000
0000
0000
0010
0000
0000
0000
0100
0000
0000
0000
1002
0000
0000
0000
0000
0000
0000
0000
0000
0000
0000
0000
0013
0000
0000
0100
0000
0000
1000
0000
0000
0010
0000
0000
,
1001
0010
0001
1000
0101
0010
0001
1000
0110
1000
0001
0010
1100
0010
0001
1000
,
0011
0100
0010
1000
0110
1000
0001
0100
1001
0010
0001
1000
0011
0100
0010
1000
,
0101
0010
1000
0100
0011
0100
1100
0010
,
0101
0000
1000
0000
0001
0000
0100
0000
0010
0000
1000
0000
0100
0010
0001
0010
,
1100
0001
0010
0100
1001
0100
1000
0010
1100
0001
1000
0100
1010
0001
1000
0100
,
1010
0001
0100
0001
1010
0100
1000
0001
0110
0001
0100
0010
1100
0001
0100
0001
,
0110
0001
1100
0010
,
1002
0000
0103
0000
,
0101
0010
1000
0100
1010
0100
1000
0001
0110
0001
1000
0100
0011
0100
1000
0001
,
1100
0010
0100
0001
0110
0001
1000
0010
1001
0100
1000
0001
1100
0010
0100
0001
,
1010
0100
0001
0010
1100
0010
0011
0100
,
1010
0000
0010
0000
1000
0000
0010
0000
0100
0000
0001
0000
0011
0100
1000
0001
,
1010
0100
0010
1000
0101
0010
0001
0100
0011
1000
0001
0010
0101
1000
0001
0010
,
0101
1000
0010
1000
0101
0010
0001
1000
0110
1000
0010
0100
0011
1000
0010
1000
,
0110
1000
0011
0100
,
2001
0000
3010
0000
,
1000
0000
0011
0000
1000
0010
0101
0000
,
0100
0000
0011
0000
1010
0001
0101
0100
,
1010
1000
0100
0010
1001
0100
1000
0010
,
1100
0001
0100
0000
0000
0000
0011
1000
0010
0000
0000
0000
0100
0000
0001
0000
,
1000
0000
1100
0000
0001
1000
0110
0000
,
0010
0000
1100
0000
1001
0100
0010
0100
,
1001
0100
0001
0110
1000
0001
0010
0100
,
1010
0001
0010
0000
0000
0000
1001
0100
0010
0000
0000
0000
0010
1000
0001
0100
,
1001
0010
1000
0010
1100
0001
0010
0100
1001
0100
0010
0001
1010
0100
0010
0001
,
1100
0010
0001
0100
0011
1000
0001
0100
1010
0100
0010
1000
0101
0010
0001
0010
,
1100
0001
0100
0010
1100
0001
0010
0100
1001
0100
0010
1000
0011
0100
0010
1000
,
0101
0000
0100
0010
,
1010
0000
1000
0100
,
0101
0000
0011
0000
,
1100
0000
1010
0000
,
0101
0000
1000
0010
,
0011
0000
0000
0000
,
1001
0000
0010
1000
,
0101
0000
0000
0000
0000
0000
0000
0000
0000
0000
0000
0000
1000
0010
0100
0010
,
0101
1000
0010
0100
0011
1000
0100
1000
0011
0100
0001
0010
0101
1000
0001
0100
,
0011
1000
0100
1000
0011
0100
0010
1000
0011
0100
0001
0010
1100
0010
0001
1000
,
0011
0100
0010
1000
0101
0010
0001
1000
0011
1000
0010
0100
1001
0100
0010
1000
,
0101
0010
0100
0010
0101
1000
0100
0010
0101
1000
0001
0100
0011
1000
0100
0010
,
1001
0010
0100
0010
1001
0100
0010
1000
0011
0100
0001
1000
0011
0100
0010
1000
,
0101
0010
0100
1000
0101
0010
0100
1000
0011
0100
0001
0010
1001
0100
0010
1000
,
0101
0010
0100
0010
1001
0010
0100
0010
1001
0100
0010
0100
1001
0100
0010
1000
,
0101
1000
0001
0100
0011
1000
0100
0010
0101
1000
0001
0100
0011
1000
0100
0010
,
1001
0000
1100
0000
1000
0010
0101
0000
,
0010
0000
1001
0000
1000
0010
0011
0000
,
0001
0000
1100
0000
1000
0100
1100
0000
,
0010
0010
0011
1000
1100
0001
0011
0000
,
1100
0100
0010
0011
0000
0000
1010
0000
,
0011
0000
0000
0101
0000
0000
1010
0000
,
0110
0010
1000
0100
0110
0000
0011
0000
,
1001
0100
0110
0010
1100
0100
1100
0010
,
0110
0001
1010
0010
0101
0001
0100
0010
,
1001
0100
0010
1000
0011
0100
0001
0010
0101
1000
0100
0010
0101
1000
0010
0100
,
1001
0010
1000
0100
1010
0001
0100
0001
1010
0100
1000
0001
1100
0010
1000
0001
,
0110
1000
0001
0100
1001
0010
0100
1000
0101
0010
0100
1000
0011
0100
0010
1000
,
0110
0001
1000
0010
1100
0001
0010
0100
1010
0001
0100
0010
1100
0001
0100
0010
,
0101
1000
0010
0100
1001
0010
0100
1000
0101
0010
0001
1000
0110
1000
0001
0100
,
1010
0001
0100
0010
1001
0100
0010
0100
1010
0001
0010
0001
1100
0010
1000
0001
,
0110
1000
0001
0010
0101
1000
0100
1000
0011
0100
0010
1000
0101
0010
0001
0100
,
1010
0000
0000
0001
0000
0000
1000
0000
0000
0001
0000
0000
1010
0000
0000
0100
0000
0000
1000
0000
0000
0000
0000
0000
0110
0000
0000
0000
0001
0000
0000
0000
0010
0000
0000
0000
1100
0000
0000
0000
0001
0000
0000
0000
0100
0000
0000
0000
,
0020
0000
0000
0030
,
1000
0002
0000
0000
0000
0000
0000
0000
0000
0000
0000
0000
0000
0000
0000
0000
0000
0000
0000
0000
0000
0000
0000
0000
0000
0000
0000
0000
0000
0000
0000
0000
0000
0000
0000
0000
0000
0000
0000
0000
0000
0000
0000
0000
0000
0000
0000
0000
0000
0000
0000
0000
0000
0000
0000
0000
0000
0000
0000
0000
0000
0000
0000
0000
,
1013
0100
1000
0011
0100
1000
0011
0100
0001
1010
0100
0001
,
1010
0100
1000
0011
0100
1000
0101
0010
1000
0011
0100
1000
,
0011
0000
1000
0011
0100
0001
1010
0001
0010
1001
0100
0001
,
1100
0010
0100
0011
1000
0010
1100
0001
0010
0101
1000
0100
,
1020
0000
1000
0032
0100
0000
2013
0000
,
3011
0100
0001
1100
0010
0100
1001
0010
0100
1010
0001
0010
,
0101
0010
1000
0101
0010
0001
1010
0100
1000
0011
0100
0010
,
1001
0100
0110
0001
0101
0001
0011
0010
,
0110
0100
1100
1000
1001
0001
0101
0100
,
0110
0000
0010
1010
0000
0000
1000
0110
,
0001
0000
0001
1010
0000
0000
1000
0100
,
0110
0010
0001
1000
0000
0010
0100
0000
,
0011
0100
1000
0010
0000
0010
0100
0000
,
0101
0010
1000
1000
0000
0110
0000
0010
,
0011
0001
1000
0010
0000
1000
0001
0000
,
0011
0100
1000
0010
0000
1001
0000
0001
,
0101
0010
1000
0100
0000
0010
0001
0000
,
1100
0010
0100
1000
0000
0101
0000
0010
,
1010
1000
0100
0011
0000
0001
1001
0000
,
1010
0010
0100
0101
0000
0011
0000
0010
,
0110
0100
1000
1001
0000
0001
0101
0000
,
0101
1000
0010
0100
0011
1000
0010
1000
0101
0010
1000
0100
1010
0001
1000
0100
,
0011
1000
0100
1000
0101
0010
0100
1000
0101
0010
1000
0001
1010
0100
1000
0100
,
0011
0000
0000
0000
0100
0000
0000
0000
1000
0000
0000
0000
0101
0000
0000
0000
0000
0000
1000
0000
0000
0000
0000
0000
1010
0000
0000
0100
0000
0000
0001
0000
0000
0000
0000
0000
0110
0000
0000
0000
0000
0000
0000
0000
0000
0000
0000
0000
,
1010
0000
0000
0000
0001
0000
0000
0000
0100
0000
0000
0000
0011
0000
0000
0000
0000
0000
1000
0000
0000
0001
0000
0000
1100
0000
0000
0000
0000
0000
0010
0000
0000
0000
0000
0000
1100
0000
0000
0000
0000
0000
0000
0000
0000
0000
0000
0000
,
1001
0000
0100
0000
0001
0000
1010
0000
0000
0100
0000
0000
1001
0000
0000
0100
0000
0000
0011
0000
0000
0000
0000
0000
,
1100
0000
0000
0000
0010
0000
0000
0000
0001
0000
0000
0000
0110
0000
0000
0000
0000
0000
0010
0000
0000
1000
0000
0000
0011
0000
0000
0000
0000
0000
0100
0000
0000
0000
0000
0000
1010
0000
0000
0100
0000
0000
0001
0000
0000
0010
0000
0000
,
1001
0100
1000
0100
0011
0100
1000
0001
1010
0100
0010
0001
1010
0100
1000
0010
,
0101
1000
0010
0100
1001
0100
0010
0100
1001
0100
0010
1000
0011
1000
0001
0100
,
1010
0001
0010
0100
1010
0001
1000
0010
0101
1000
0100
0010
0101
1000
0010
0100
,
1001
0010
0100
0001
1010
0100
0010
0001
0110
1000
0100
0010
1001
0100
0010
1000
,
0011
0000
0010
0110
0000
0100
1100
1000
,
1010
0010
0110
0000
0100
0101
0000
0001
,
2002
0000
0000
3003
,
1010
0000
0001
1000
,
1100
0000
0010
0001
,
1001
0000
0011
0000
,
1010
0000
0101
0000
,
0110
0000
0010
1000
,
1001
0000
0000
0000
,
0011
0000
0010
0100
,
1100
0000
0000
0000
0000
0000
0000
0000
0001
0000
1000
0000
0100
0010
0001
0100
,
1010
0100
0010
0001
1010
0001
1000
0100
1001
0010
0100
0001
1010
0100
1000
0010
,
1100
0001
0010
0100
1010
0001
1000
0010
1100
0001
0010
0100
1010
0001
1000
0010
,
1100
0001
0100
0001
1010
0100
0010
0001
1010
0100
1000
0001
1010
0100
0010
0001
,
1010
0001
1000
0010
1100
0001
1000
0001
1100
0010
1000
0100
1010
0001
0100
0001
,
1100
0010
0100
0001
1010
0001
0010
0100
1001
0100
1000
0001
0110
0001
0010
0001
,
1100
0010
1000
0100
1001
0010
0100
0001
1010
0001
1000
0010
1100
0001
0100
0001
,
1010
0100
1000
0010
1100
0001
0100
0001
1100
0010
1000
0100
0011
0100
0010
0001
,
1100
0010
0100
0001
1010
0100
0010
0001
1010
0100
0010
0001
1010
0100
1000
0001
,
1100
0010
0100
1001
0010
0100
1001
0100
1000
0101
0010
0001
,
1100
0010
0100
1001
0100
0010
1001
0100
1000
0101
0010
0100
,
1010
0001
1000
0011
0100
0001
1010
0100
1000
0011
0100
0001
,
1010
0100
0010
0101
0010
0100
2001
0000
0000
3011
0000
0000
,
1001
0100
0010
1001
0100
0010
0101
0010
0001
1010
0100
1000
,
0011
0100
0010
1001
0010
0100
1001
0010
0001
1010
0100
0010
,
0101
1000
0001
1100
0010
1000
0101
0010
0001
1100
0010
1000
,
0101
0000
0000
0000
0010
0000
0000
0000
0100
0000
0000
0000
1001
0000
0000
0000
0100
0000
0000
0000
0010
0000
0000
0000
1001
0000
0000
0100
0000
0000
0010
0000
0000
1000
0000
0000
0011
0000
0000
0100
0000
0000
0001
0000
0000
1000
0000
0000
,
0101
0101
0000
0000
,
0011
0011
0000
0000
,
1010
1010
0000
0000
,
2002
0000
0000
3000
,
0200
0000
0000
0303
,
2020
0000
0000
0030
,
0002
0000
0000
0000
0000
0000
0000
0000
0000
0000
0000
0000
0000
0000
0000
3000
0000
0000
0013
0000
1100
0000
0011
0000
,
1010
0000
0000
0000
;
